Jump to content
Elit Fórum
Sign in to follow this  
bubus

9 hónap letöltendő (9 mois ferme)2013 DVDRip.x264.HuN színes, magyarul beszélő, francia vígjáték, 82 perc, (12)

Recommended Posts

bubus

9 hónap letöltendő (9 mois ferme)2013 DVDRip.x264.HuN


színes, magyarul beszélő, francia vígjáték, 82 perc, (12)

Please login or register to see this link.
Please login or register to see this link.

Rendező
Albert Dupontel

Szereplők
Albert Dupontel (Bob Nolan)
Sandrine Kiberlain (Ariane Felder)
Nicolas Marié (Maitre Trolos)
Philippe Uchan (De Bernard)
Philippe Duquesne (Dr. Toulate)
Gilles Gaston-Dreyfus (M. De Lime)
Laure Calamy (Daisy)

Tartalom
Ariane, a szigorú erkölcsű bírónő rájön, hogy terhes. Ráadásul az apasági teszt szerint Bob, az agresszív bűnöző az "elkövető". Ariane semmire sem emlékszik, ezért szinte az őrületbe kergeti az eset.
General
Complete name        :ricsi.csjk.bsszj.2014.wmv
Format           : Windows Media
File size          : 1.94 GiB
Duration          : 1h 49mn
Overall bit rate mode    : Constant
Overall bit rate      : 2 545 Kbps
Maximum Overall bit rate  : 5 169 Kbps
Encoded date        : UTC 2014-07-04 12:18:24.990

Video
ID             : 2
Format           : VC-1
Format profile       : MP@ML
Codec ID          : WMV3
Codec ID/Info        : Windows Media Video 9
Codec ID/Hint        : WMV3
Description of the codec  : Windows Media Video 9
Duration          : 1h 49mn
Bit rate mode        : Constant
Bit rate          : 5 000 Kbps
Width            : 720 pixels
Height           : 400 pixels
Display aspect ratio    : 16:9
Frame rate         : 25.000 fps
Color space         : YUV
Chroma subsampling     : 4:2:0
Bit depth          : 8 bits
Scan type          : Progressive
Compression mode      : Lossy
Bits/(Pixel*Frame)     : 0.694
Stream size         : 3.81 GiB
Language          : English (US)

Audio
ID             : 1
Format           : WMA
Format version       : Version 2
Codec ID          : 161
Codec ID/Info        : Windows Media Audio
Description of the codec  : Windows Media Audio 9.2 - 128 kbps, 44 kHz, stereo 1-pass CBR
Duration          : 1h 49mn
Bit rate mode        : Constant
Bit rate          : 128 Kbps
Channel(s)         : 2 channels
Sampling rate        : 44.1 KHz
Bit depth          : 16 bits
Stream size         : 100.0 MiB (5%)
Language          : English (US)

dnm62qlfr6pimwlikjn1.png

Please login or register to see this code.

l4k9ckkh1gai6h9vqm66.png

Please login or register to see this code.

u5rwj15chs1puimb37w6.png

Please login or register to see this code.

Hozzászólás megosztása


Link a hozzászóláshoz
Share on other sites

Create an account or sign in to comment

You need to be a member in order to leave a comment

Create an account

Sign up for a new account in our community. It's easy!

Register a new account

Bejelentkezés

Already have an account? Sign in here.

Bejelentkezés
Sign in to follow this  

×