Tisztelt Felhasználók!

 

Egy nagyobb fejlesztésen esett keresztül az oldal, aminek köszönhetően sok dolog egyszerűbb és könnyebb lett mind felhasználói, mind üzemeltetői szinten.

Gyakorlatilag majd minden ugyanúgy működik ahogyan eddig is; ugyanakkor van rengeteg új funkció, új lehetőségek és persze a kinézet is picit más.

Ha bármilyen kérdésetek, problémátok akadna, ide kattintva, lehetőleg új téma nyitásával jelezzétek! Köszönjük. 

Üdvözlünk az Elit Fórumon

Üdvözlünk az Elit Fórumon!

 

Az Elit Fórum teljes körű szolgáltatásait csak regisztráció után lehet igénybe venni. A regisztráció ingyenes, minimális információk szükségeltetnek hozzá.

 

Bemutatkozás:

Az Elit Fórum Elit Warez néven alakult 2004-ben. A warez akkoriban fénykorát élte; magában foglalta a közösséget, a letöltési lehetőséget és a segítséget egymásnak. Ma facebook-ot használunk, torrent oldalakat és segítséget is ritkán kell kérnünk, mert a google-ban szinte mindenre választ kaphatunk.
Mint minden nagyobb oldal életében, úgy a miénkben is voltak buktatók. A vezetőség a fennállás óta teljesen lecserélődött - az oldal tulajdonosát kivéve. Volt aki egymaga alapított másik warez oldalt és voltak olyanok is akik egyszerűen kiváltak és hoztak létre más néven ugyanazon alapokra egy oldalt.
Az immár több éves fennállásunk alatt tehát sok mindenen mentünk keresztül és az internetes társadalom is jelentősen megváltozott, de sokmindenki nagy örömére itt vagyunk és nem is áll szándékunkban odébb állni. Stabilak vagyunk; büszkék a jelenünkre és a múltunkra egyaránt. De a legbüszkébbek a felhasználóinkra, akik időről időre visszajárnak és valamilyen formában nyomot hagynak maguk után...


Amiért mindenképpen érdemes regisztrálni:

  • bármit letölthetsz az oldalról, természetesen ingyen
  • hozzászólhatsz bármilyen témához
  • segítséget kérhetsz
  • új ismeretségeket köthetsz
  • a további lehetőségeket pedig felfedezheted te magad :)

Az oldal Firefox és Chrome böngészőre van optimalizálva!

Sign in to follow this  
Followers 0
bubus

Egy kutya négy élete (A Dog's Purpose) 2017 DVDRip színes, magyarul beszélő, amerikai családi film, 100 perc, (12)

Egy kutya négy élete (A Dog's Purpose) 2017 DVDRip
színes, magyarul beszélő, amerikai családi film, 100 perc, (12)

 

kép
kép

 

Stáb:
rendező: Lasse Hallström
írta: W. Bruce Cameron
forgatókönyvíró: W. Bruce Cameron, Cathryn Michon, Audrey Wells, Maya Forbes, Wallace Wolodarsky
producer: Gavin Polone
ügyvezető producer: Alan C. Blomquist, Lauren Pfeiffer, Mark Sourian
operatőr: Terry Stacey
zene: Rachel Portman
vágó: Robert Leighton


Szereplő(k):
Josh Gad (a kutyák hangja)
Juliet Rylance (Elizabeth, Ethan anyja)
Luke Kirby (Jim, Ethan apja)
Dennis Quaid (a felnőtt Ethan)
Peggy Lipton (a felnőtt Hannah)
K. J. Apa (a fiatal Ethan)
Britt Robertson (a fiatal Hannah)
Bryce Gheisar (a gyerek Ethan)
Pooch Hall (Al)
Logan Miller (Todd)
Nicole LaPlaca (Wendi)
Caroline Cave (Ellen)
Gabrielle Rose (Fran nagymama)
Michael Bofshever (Bill nagypapa)
Kirby Howell-Baptiste (Maya Williams)
Primo Allon (Victor)
Michael Patric (Sam)
Kelly-Ruth Mercier (Vet)


Tartalom:
Bailey egy pajkos kiskutyaként jön a világra, története pedig egy szerető kisfiú karjaiban kezdődik. A tapasztalatlan gazdi és a játékra mindig kész eb hamarosan elválaszthatatlan barátokká válnak akik feltétel nélkül elfogadják egymást. Megannyi izgalmas kalandot élnek át együtt miközben Bailey arra a nagy kérdésre keresi a választ: mi lehet a létezése célja, mi keresni valója van az emberek között. Ahogy múlnak az évek a már aggastyán korba lépő Bailey tudja, hamarosan el kell búcsúznia a számára legfontosabb személytől akivel élete minden egyes napját megosztotta. Ám ekkor megtörténik a csoda és egy újabb kölyökkutya testében születik ujjá. Később aztán egy újabb és megint egy újabb eb bőrébe bújva éli mozgalmas, vidám és meghitt pillanatokkal teli életét. Vándorlásai során számos gazdit tanít meg nevetni és szeretni, mialatt próbálja megérteni, milyen küldetéssel született a világra.
General
Complete name               : Egy kutya négy élete (A Dog's Purpose) 2017.avi
Format                      : AVI
Format/Info                 : Audio Video Interleave
File size                   : 1.36 GiB
Duration                    : 1 h 40 min
Overall bit rate            : 1 940 kb/s
Writing application         : VirtualDubMod 1.5.10.3 | www.virtualdub-fr.org || (build 2550/release)
Writing library             : VirtualDubMod build 2550/release

Video
ID                          : 0
Format                      : MPEG-4 Visual
Format profile              : Advanced Simple@L5
Format settings             : BVOP1
Format settings, BVOP       : 1
Format settings, QPel       : No
Format settings, GMC        : No warppoints
Format settings, Matrix     : Default (MPEG)
Codec ID                    : XVID
Codec ID/Hint               : XviD
Duration                    : 1 h 40 min
Bit rate                    : 1 483 kb/s
Width                       : 720 pixels
Height                      : 304 pixels
Display aspect ratio        : 2.35:1
Frame rate                  : 23.976 (24000/1001) FPS
Original frame rate         : 23.976 (23976/1000) FPS
Color space                 : YUV
Chroma subsampling          : 4:2:0
Bit depth                   : 8 bits
Scan type                   : Progressive
Compression mode            : Lossy
Bits/(Pixel*Frame)          : 0.283
Stream size                 : 1.04 GiB (76%)
Writing library             : XviD 73

Audio
ID                          : 1
Format                      : AC-3
Format/Info                 : Audio Coding 3
Format settings, Endianness : Big
Codec ID                    : 2000
Duration                    : 1 h 40 min
Bit rate mode               : Constant
Bit rate                    : 448 kb/s
Channel(s)                  : 6 channels
Channel positions           : Front: L C R, Side: L R, LFE
Sampling rate               : 48.0 kHz
Frame rate                  : 31.250 FPS (1536 SPF)
Bit depth                   : 16 bits
Compression mode            : Lossy
Stream size                 : 321 MiB (23%)
Alignment                   : Split accross interleaves
Interleave, duration        : 42  ms (1.00 video frame)
Interleave, preload duratio : 500  ms
Service kind                : Complete Main

 

kép

Please login or register to see this code.

 

kép

Please login or register to see this code.

 

kép

Please login or register to see this code.

0

Hozzászólás megosztása


Link a hozzászóláshoz
Share on other sites
Sign in to follow this  
Followers 0